Loading...
 * Dettagli Torrent   globale  | Commenti (0) 


- Chiamami col tuo nome (2017).720p.H264.italian.english.Ac3-5.1.sub.ita.eng-MIRCrew -


Download via torrent:
Categoria bittorrent BDRip
Descrizione
visitate mircrew-releases


Call Me by Your Name - Chiamami col tuo nome (2017).720p.H264.italian.english.Ac3-5.1.sub.ita.eng-MIRCrew


NO FOUND ONLY ORIGINAL RELEASE

My release is always in double track audio italian and Original audio
for select it use VLC or dvd player home
not use wmp

Chiamami col tuo nome - Call Me by Your Name (2017)

Quality MIRCrew on HD 720p da  1,7 gb











Titolo originale Call Me by Your Name
Lingua originale inglese, italiano, francese
Paese di produzione Italia, Francia, Brasile, Stati Uniti d'America
Anno 2017
Durata 132 min
Rapporto 1,85 : 1
Genere drammatico, sentimentale
Regia Luca Guadagnino
Soggetto dal romanzo di André Aciman
storia di Luca Guadagnino e Walter Fasano
Sceneggiatura James Ivory



   Timothée Chalamet: Elio Perlman
   Armie Hammer: Oliver
   Michael Stuhlbarg: Sig. Perlman
   Amira Casar: Annella Perlman
   Esther Garrel: Marzia
   Victoire Du Bois: Chiara
   Vanda Capriolo: Mafalda
   Antonio Rimoldi: Anchise
   Elena Bucci: Bambi
   Marco Sgrosso: Nico
   André Aciman: Mounir
   Peter Spears: Isaac



Elio Perlman, diciassettenne ebreo italoamericano, trascorre le vacanze estive nella campagna del nord Italia con i suoi genitori, in una villa immersa nelle campagne del Cremasco, dove suo padre, un professore di archeologia, è solito ospitare ogni anno uno studente straniero, impegnato nella redazione della sua tesi di dottorato.



In 1980s Italy, a romance blossoms between a seventeen year-old student and the older man hired as his father's research assistant.




General
Unique ID                                : 103610913415939556445825908908518633115 (0x4DF2BC6F2B4F986BB6CF33DC24696E9B)
Complete name                            : Chiamami col tuo nome - Call Me by Your Name (2017).720p.ita.eng.sub.ita.eng-MIRCrewChiamami col tuo nome - Call Me by Your Name (2017).720p.ita.eng.sub.ita.eng-MIRCrew.mkv
Format                                   : Matroska
Format version                           : Version 4 / Version 2
File size                                : 2.44 GiB
Duration                                 : 2h 12mn
Overall bit rate                         : 2 650 Kbps
Movie name                               : MIRCrew
Encoded date                             : UTC 2019-05-09 18:17:17
Writing application                      : mkvmerge v26.0.0 ('In The Game&#39 64-bit
Writing library                          : Lavf54.63.100
ARTIST                                   : robbyrs
COMMENT                                  : mircrew-releases

Video
ID                                       : 1
Format                                   : AVC
Format/Info                              : Advanced Video Codec
Format profile                           : [email protected]
Format settings, CABAC                   : Yes
Format settings, ReFrames                : 2 frames
Codec ID                                 : V_MPEG4/ISO/AVC
Duration                                 : 2h 12mn
Bit rate                                 : 1 900 Kbps
Width                                    : 1 280 pixels
Height                                   : 688 pixels
Display aspect ratio                     : 1.853
Frame rate mode                          : Variable
Frame rate                               : 23.976 fps
Color space                              : YUV
Chroma subsampling                       : 4:2:0
Bit depth                                : 8 bits
Scan type                                : Progressive
Bits/(Pixel*Frame)                       : 0.090
Stream size                              : 1.69 GiB (69%)
Title                                    : MIRCrew
Writing library                          : x264 core 130 r2273
Encoding settings                        : cabac=1 / ref=2 / deblock=1:0:0 / analyse=0x1:0x131 / me=hex / subme=7 / psy=1 / psy_rd=1.00:0.00 / mixed_ref=0 / me_range=16 / chroma_me=1 / trellis=1 / 8x8dct=0 / cqm=0 / deadzone=21,11 / fast_pskip=1 / chroma_qp_offset=-2 / threads=6 / lookahead_threads=1 / sliced_threads=0 / nr=0 / decimate=1 / interlaced=0 / bluray_compat=0 / constrained_intra=0 / bframes=3 / b_pyramid=0 / b_adapt=1 / b_bias=0 / direct=3 / weightb=1 / open_gop=0 / weightp=2 / keyint=230 / keyint_min=23 / scenecut=40 / intra_refresh=0 / rc_lookahead=40 / rc=abr / mbtree=1 / bitrate=1900 / ratetol=1.0 / qcomp=0.60 / qpmin=10 / qpmax=69 / qpstep=4 / vbv_maxrate=24000 / vbv_bufsize=24000 / nal_hrd=none / ip_ratio=1.40 / aq=1:1.00
Language                                 : Italian
Default                                  : Yes
Forced                                   : No
DURATION                                 : 02:12:00.288000000
NUMBER_OF_FRAMES                         : 189897
NUMBER_OF_BYTES                          : 1861768385
_STATISTICS_WRITING_APP                  : mkvmerge v26.0.0 ('In The Game&#39 64-bit
_STATISTICS_WRITING_DATE_UTC             : 2019-05-15 20:34:54
_STATISTICS_TAGS                         : BPS DURATION NUMBER_OF_FRAMES NUMBER_OF_BYTES

Audio #1
ID                                       : 2
Format                                   : AC-3
Format/Info                              : Audio Coding 3
Mode extension                           : CM (complete main)
Codec ID                                 : A_AC3
Duration                                 : 2h 12mn
Bit rate mode                            : Constant
Bit rate                                 : 384 Kbps
Channel(s)                               : 6 channels
Channel positions                        : Front: L C R, Side: L R, LFE
Sampling rate                            : 48.0 KHz
Bit depth                                : 16 bits
Compression mode                         : Lossy
Delay relative to video                  : -5ms
Stream size                              : 363 MiB (14%)
Title                                    : Ita Ac3 5.1
Language                                 : Italian
Default                                  : Yes
Forced                                   : No
DURATION                                 : 02:12:00.160000000
NUMBER_OF_FRAMES                         : 247505
NUMBER_OF_BYTES                          : 380167680
_STATISTICS_WRITING_APP                  : mkvmerge v26.0.0 ('In The Game&#39 64-bit
_STATISTICS_WRITING_DATE_UTC             : 2019-05-15 20:34:54
_STATISTICS_TAGS                         : BPS DURATION NUMBER_OF_FRAMES NUMBER_OF_BYTES

Audio #2
ID                                       : 3
Format                                   : AC-3
Format/Info                              : Audio Coding 3
Mode extension                           : CM (complete main)
Codec ID                                 : A_AC3
Duration                                 : 2h 12mn
Bit rate mode                            : Constant
Bit rate                                 : 384 Kbps
Channel(s)                               : 2 channels
Channel positions                        : Front: L R
Sampling rate                            : 48.0 KHz
Bit depth                                : 16 bits
Compression mode                         : Lossy
Delay relative to video                  : -5ms
Stream size                              : 363 MiB (14%)
Title                                    : Eng Ac3 5.1
Language                                 : English
Default                                  : No
Forced                                   : No
DURATION                                 : 02:12:00.352000000
NUMBER_OF_FRAMES                         : 247511
NUMBER_OF_BYTES                          : 380176896
_STATISTICS_WRITING_APP                  : mkvmerge v26.0.0 ('In The Game&#39 64-bit
_STATISTICS_WRITING_DATE_UTC             : 2019-05-15 20:34:54
_STATISTICS_TAGS                         : BPS DURATION NUMBER_OF_FRAMES NUMBER_OF_BYTES

Menu
00:00:00.000                             : :Chapter 01
00:07:29.574                             : :Chapter 02
00:16:14.599                             : :Chapter 03
00:24:56.495                             : :Chapter 04
00:32:32.576                             : :Chapter 05
00:42:17.034                             : :Chapter 06
00:51:09.149                             : :Chapter 07
01:00:13.652                             : :Chapter 08
01:07:01.893                             : :Chapter 09
01:16:50.272                             : :Chapter 10
01:23:55.906                             : :Chapter 11
01:31:20.975                             : :Chapter 12
01:37:58.790                             : :Chapter 13
01:46:57.494                             : :Chapter 14
01:54:29.237                             : :Chapter 15
02:02:29.551                             : :Chapter 16





Info: Per scaricare devi usare un client come uTorrent o Transmission
AnnounceURL
udp://tracker.coppersurfer.tk:6969/announce
Hash 98fc8eede19679a0426651f8ca1d04c33195edb2
Peers seeds: 28 , leech: 3
Size 2.44 GB
Completato 348x
Aggiunto 20.05.19 - 10:05:13
Uploader   robbyrs
Votazione (Voti: 0)


Condividi questo bittorrent:


html/blog:


bbcode/forum:




Aggiungi Commento