Loading...
 * Dettagli Torrent   globale  | Commenti (0) 


- Benvenuti a Marwen (2018).1080p.H264.italian.english.Ac3-5.1.sub.ita.eng-MIRCrew -


Download via torrent:
Categoria bittorrent BDRip
Descrizione
visitate mircrew-releases

Welcome to Marwen - Benvenuti a Marwen 2018.1080p.H264.italian.english.Ac3-5.1.sub.ita.eng-MIRCrew


NO FOUND ONLY ORIGINAL RELEASE

My release is always in double track audio italian and Original audio
for select it use VLC or dvd player home
not use wmp

Benvenuti a Marwen - Welcome to Marwen (201

Quality MIRCrew on HD 1080p da  3,2 gb










Titolo originale Welcome to Marwen
Lingua originale inglese, tedesco
Paese di produzione Stati Uniti d'America
Anno 2018
Durata 116 min
Rapporto 2,39 : 1
Genere drammatico, biografico, fantastico, guerra, azione
Regia Robert Zemeckis
Soggetto storia di Robert Zemeckis e Caroline Thompson
Sceneggiatura Robert Zemeckis



   Steve Carell: Mark Hogancamp
   Leslie Mann: Nicol
   Diane Kruger: Deja Thoris
   Merritt Wever: Roberta
   Janelle Monáe: Julie
   Eiza González: Caralala
   Gwendoline Christie: Anna
   Leslie Zemeckis: Suzette
   Neil Jackson: Kurt
   Conrad Coates: Demaryius Johnson
   Falk Hentschel: Ludwig Topf
   Matt O'Leary: Carl
   Nikolai Witschl: Rudolph
   Patrick Roccas: Stefan
   Alexander Lowe: Werner
   Eric Keenleyside: Larry
   Stefanie von Pfetten: Wendy
   Siobhan Williams: Elsa



Mark Hogancamp è vittima di un violento pestaggio da parte di cinque uomini che lo attaccarono dopo averlo sentito dire da ubriaco che gli piaceva indossare scarpe da donna. Sopravvissuto all'attacco, Mark soffre di un'amnesia che gli impedisce di ricordarsi della sua vita precedente al pestaggio e.........................



On April 8, 2000, aspiring artist Mark Hogancamp (Steve Carell) became a victim of a violent assault when five men beat him up and left him for dead. Following the attack, Mark was left with little to no memory of his previous life due to brain damage inflicted by his attackers

 





General
Unique ID                                : 328145845727704159416321480905589227662 (0xF6DE974E7BFDA561BA0F58D44B97808E)
Complete name                            : Benvenuti a Marwen - Welcome to Marwen (201.1080p.ita.eng.sub.ita.eng-MIRCrewBenvenuti a Marwen - Welcome to Marwen (201.1080p.ita.eng.sub.ita.eng-MIRCrew.mkv
Format                                   : Matroska
Format version                           : Version 2
File size                                : 3.27 GiB
Duration                                 : 1h 55mn
Overall bit rate                         : 4 037 Kbps
Movie name                               : MIRCrew
Encoded date                             : UTC 2019-04-25 08:26:34
Writing application                      : Lavf54.63.100
Writing library                          : Lavf54.63.100
COMMENT                                  : mircrew-releases

Video
ID                                       : 1
Format                                   : AVC
Format/Info                              : Advanced Video Codec
Format profile                           : [email protected]
Format settings, CABAC                   : Yes
Format settings, ReFrames                : 2 frames
Codec ID                                 : V_MPEG4/ISO/AVC
Duration                                 : 1h 55mn
Bit rate                                 : 3 300 Kbps
Width                                    : 1 920 pixels
Height                                   : 800 pixels
Display aspect ratio                     : 2.40:1
Frame rate mode                          : Variable
Frame rate                               : 23.976 fps
Color space                              : YUV
Chroma subsampling                       : 4:2:0
Bit depth                                : 8 bits
Scan type                                : Progressive
Bits/(Pixel*Frame)                       : 0.090
Stream size                              : 2.58 GiB (79%)
Writing library                          : x264 core 130 r2273
Encoding settings                        : cabac=1 / ref=2 / deblock=1:0:0 / analyse=0x1:0x131 / me=hex / subme=7 / psy=1 / psy_rd=1.00:0.00 / mixed_ref=0 / me_range=16 / chroma_me=1 / trellis=1 / 8x8dct=0 / cqm=0 / deadzone=21,11 / fast_pskip=1 / chroma_qp_offset=-2 / threads=9 / lookahead_threads=1 / sliced_threads=0 / nr=0 / decimate=1 / interlaced=0 / bluray_compat=0 / constrained_intra=0 / bframes=3 / b_pyramid=0 / b_adapt=1 / b_bias=0 / direct=3 / weightb=1 / open_gop=0 / weightp=2 / keyint=230 / keyint_min=23 / scenecut=40 / intra_refresh=0 / rc_lookahead=40 / rc=abr / mbtree=1 / bitrate=3300 / ratetol=1.0 / qcomp=0.60 / qpmin=10 / qpmax=69 / qpstep=4 / vbv_maxrate=24000 / vbv_bufsize=24000 / nal_hrd=none / ip_ratio=1.40 / aq=1:1.00
Language                                 : Italian
Default                                  : Yes
Forced                                   : No

Audio #1
ID                                       : 2
Format                                   : AC-3
Format/Info                              : Audio Coding 3
Mode extension                           : CM (complete main)
Codec ID                                 : A_AC3
Duration                                 : 1h 55mn
Bit rate mode                            : Constant
Bit rate                                 : 384 Kbps
Channel(s)                               : 6 channels
Channel positions                        : Front: L C R, Side: L R, LFE
Sampling rate                            : 48.0 KHz
Bit depth                                : 16 bits
Compression mode                         : Lossy
Delay relative to video                  : 1mn 5s
Stream size                              : 318 MiB (10%)
Title                                    :  Ita Ac3 5.1
Language                                 : Italian
Default                                  : Yes
Forced                                   : Yes

Audio #2
ID                                       : 3
Format                                   : AC-3
Format/Info                              : Audio Coding 3
Mode extension                           : CM (complete main)
Codec ID                                 : A_AC3
Duration                                 : 1h 55mn
Bit rate mode                            : Constant
Bit rate                                 : 384 Kbps
Channel(s)                               : 6 channels
Channel positions                        : Front: L C R, Side: L R, LFE
Sampling rate                            : 48.0 KHz
Bit depth                                : 16 bits
Compression mode                         : Lossy
Delay relative to video                  : 1mn 5s
Stream size                              : 318 MiB (10%)
Title                                    : Eng Ac3 5.1
Language                                 : English
Default                                  : No
Forced                                   : No

Menu
00:00:00.000                             : :00:00:00.000
00:04:17.257                             : :00:04:17.257
00:10:57.448                             : :00:10:57.448
00:16:42.877                             : :00:16:42.877
00:22:26.971                             : :00:22:26.971
00:27:34.820                             : :00:27:34.820
00:35:10.775                             : :00:35:10.775
00:41:09.217                             : :00:41:09.217
00:45:59.256                             : :00:45:59.256
00:51:35.634                             : :00:51:35.634
01:00:35.924                             : :01:00:35.924
01:03:30.974                             : :01:03:30.974
01:08:07.250                             : :01:08:07.250
01:13:38.706                             : :01:13:38.706
01:17:14.713                             : :01:17:14.713
01:25:13.525                             : :01:25:13.525
01:30:48.485                             : :01:30:48.485
01:39:34.719                             : :01:39:34.719
01:43:31.372                             : :01:43:31.372
01:48:50.232                             : :01:48:50.232







Info: Per scaricare devi usare un client come uTorrent o Transmission
AnnounceURL
udp://tracker.coppersurfer.tk:6969/announce
Hash 5191b095910fbc85f49c744112d009f9093d2194
Peers seeds: 76 , leech: 16
Size 3.27 GB
Completato 1689x
Aggiunto 20.05.19 - 15:05:47
Uploader   robbyrs
Votazione (Voti: 0)


Condividi questo bittorrent:


html/blog:


bbcode/forum:




Aggiungi Commento